• Athens by night

    VIDEO EDIT : NASKI PHOTOGRAPHY SONG : T-Pain feat. B.o.B - Up Down (Do This All Day) (Explicit)

    published: 03 Oct 2014
  • Athens by night vol2

    Edit:Naski photography

    published: 13 Oct 2014
  • NightWalking in Athens. Is it Dangerous? ☠

    In this video I'm walking in Athens alone at night! Are you curious about how things are in Athens late at night? Is it safe or not? Just watch and find out!! Subscribe: http://bit.ly/1TN8YKc Find me on: Instagram: https://www.instagram.com/konilo_/ Facebook: https://www.facebook.com/Konilo Twitter: https://twitter.com/KoniloTv e-mail: konilo.tv@gmail.com Music Safakash: https://soundcloud.com/safakash Otis McDonald Youtube Library SpeTheof : https://www.youtube.com/user/SpeTheof

    published: 03 Jun 2016
  • Athens By Night vol3

    video edit : Βασιλης Συγκουνας naski photography

    published: 10 Apr 2015
  • Athens monuments at Night.

    Subscribe Here: https://goo.gl/IywfjP Follow Nitz Photography on social networks: Facebook: https://www.facebook.com/nitzphotographer Instagram: https://instagram.com/n_tzwrtzatos/ Google+: https://plus.google.com/u/1/b/109233178930235592414/109233178930235592414/posts?pageId=109233178930235592414 NitZ Photography There are many who say Athens is worth a visit of just a couple of days and then continue on to the Greek islands,you need a day to see the Acropolis and the Parthenon ,another day or two to see the National Archaeological Museum of Athens. Furthermore, during the summer season the Athens festival is held at the Theater of Herodes Atticus under the rock of Acropolis and is the best chance to see on stage an ancient Greek drama..During the Athens Festival there are many ...

    published: 29 May 2015
  • A Night in Athens Greek Weddings

    published: 07 Apr 2016
  • Athens by night 4K

    published: 09 Jul 2016
  • A night in Athens

    Beat: Da Poet - Mikami

    published: 22 Oct 2016
  • Athens by night (Street Racing Greece) | The best cars GR

    Streetz of Athenz at night.. Επειδή είναι η τρέλα και η αγάπη μας Πάντα με προσοχή στους δρόμους και στις πίστες..ζώνη και κράνος δεν βλάπτουν ποτέ!! Facebook: https://www.facebook.com/igTheBestCarsGR/?fref=ts

    published: 09 May 2015
  • VARKIZA ATHENS by NIGHT @RIBAS | ОПАСНЫЕ ПРИКЛЮЧЕНИЯ

    Ριμπας ATHENS by NIGHT @RIBAS | ОПАСНЫЕ ПРИКЛЮЧЕНИЯ Такие вот неожиданные приключения ждали меня этой ночью, но в целом всё было круто !

    published: 01 Feb 2017
  • Athens By Night ఘ Belly Dance

    Athens By Night by Neena & Veena Belly Dance Music

    published: 11 Apr 2010
  • Athens by Night · Divenire

    Paseo por Atenas en la noche. Música: Ludovico Einaudi - Divenire

    published: 14 Apr 2013
  • Frappes, night tour, greek salad and more in ATHENS!

    Hey Guys! :) This video is sooooo overdue as I went to Athens in the beginning of September. My bad! But I finally sat down to edit and here it goes - one of my favorite layovers of the year :) Hope you enjoy! Also, there are some pictures from this layover on my Insta too, of course :) find them @vaivaged Love, Vaiva

    published: 22 Sep 2017
  • KRT - Athens by night on supermotos

    heavy traffic scene with my boys on the mountain. showing hooligans how it's done. wheelies, endos, skids, drifts, crashes, laugh and lots of love. I do not own the song - Party Thieves & JayKode - Poppy Seeds (feat. Neon Hitch)

    published: 17 Sep 2017
  • Athens By Night - 20/06/2017

    published: 21 Jun 2017
  • TheSuperCarClubGR - SUPERCARS NIGHT OUT, ATHENS TO LOUTRAKI- DECEMBER 18!

    SUPERCARS NIGHT OUT, ATHENS TO LOUTRAKI! OFFICIAL PRE CHRISTMAS EVENT, DECEMBER 18! Κλείνουμε την χρονιά με το επίσημο βίντεο του event μας στο Λουτράκι. Με την ευκαιρία αυτή, θα θέλαμε να ευχηθούμε ακόμα μία φορά "Καλή Χρονιά" στα μέλη μας και τις οικογένειες τους! Ευχαριστούμε θερμά την εταιρεία "ΚΟΣΜΗΜΑΤΑ ΚΑΛΑΔΑΜΗΣ" και το μέλος μας Κωνσταντίνος Καλαδάμης, για την υποστήριξη! 2016 is here... stay tuned! Video: Orfeas Kalafatis #thesupercarclubgr #supercarsnightout #kaladamis_jewellery #clubhotelcasinoloutraki #cinedrone

    published: 30 Dec 2015
  • Opening of W Night Club Athens on 01.10.2010

    Πειραιώς 130 - Γκάζι (ex Venue) Photo Coverage by www.carpe-diem.gr

    published: 02 Oct 2010
  • Athens by Night | GREECE EDITION - EP. 03

    Travel Vlog #58 I'm back on a travel, this time my family and I explore beautiful Greece a bit. My sisters and I went to the National Archaeological Museum of Athens, and walked through the city at night. Enjoy our travel with us! :) My sister's POV: https://youtu.be/6BGhwZ0ku-8 Greece Playlist: https://www.youtube.com/playlist?list=PLxRXRx7-rN_VOHvYhwNtuyjYzymu4kFv8 Lake Constance: https://youtu.be/VZJwZXwKRjM __ Don't forget to subscribe: http://bit.ly/1IZDg9r Blog: http://davlorito.com/ IG: https://instagram.com/davlorito FB: https://www.facebook.com/davlorito Tumblr: https://davlorito.tumblr.com/ Twitter: https://twitter.com/Davlorito Make sure to subscribe for more videos :) 📧 Business inquiries: Davlorito@gmail.com _ Abbie: IG: https://www.instagram.com/queen.liagiba/...

    published: 26 Sep 2016
  • Killers-Shot At The Night[live in Athens 24-06-2017]

    Shot At The Night Killers live Athens Greece 24-06-2017 EJEKT Festival 2017 *****THE COPYRIGHT IS NOT MINE, I JUST RECORDED THE VIDEO-ALL RIGHTS RESERVED BY Killers, THE SHOW PRODUCERS,The Artists AND THE RECORDING COMPANY/COMPANIES***** Copyright Disclaimer: Under Section 107 of the Copyright Act 1976, allowance is made for "fair use" for purposes such as criticism, comment, news reporting, teaching, scholarship, and research. Fair use is a use permitted by copyright statute that might otherwise be infringing. Non-profit, educational or personal use tips the balance in favor of fair use.

    published: 25 Jun 2017
  • Sandra - In the heat of the night (Live Athens 1987)

    hi,one more very rare video from my collection Sandra - In the heat of the night (Live Athens 1987)

    published: 31 Mar 2007
  • Athens Night Lights

    Athens from above...

    published: 01 Feb 2013
  • A night in Athens trailer

    published: 02 Nov 2012
  • BMW S1000XR: Athens to Lamia, highway by night

    Night riding, going back to Lamia from Athens.

    published: 16 Jul 2016
  • Athens night clubs party Best of deep sound music Vol 1 of 3 mix by babis jb

    Best of deep sound music Vol 1 of 3 mix by babis jb Athens night clubs party Photo Anastasiya-Kvitko //For copyright issues, please contact us via e-mail or leave messages and your song/picture will be removed immediately thanks// free download tracks list info PERFORMER "TOP DJS MIX" TITLE " Athens night clubs party " FILE "TOP DJs MIX BjB 2017-Ds.mp3" MP3 TRACK 01 AUDIO TITLE "Oxygen" PERFORMER "01 Jyye ft. Bryan Finlay" INDEX 01 00:00:00 TRACK 02 AUDIO TITLE "Hold You (Anton Ishutin Remix)" PERFORMER "02 Mahmut Orhan Meliksah Beken" INDEX 01 04:39:00 TRACK 03 AUDIO TITLE "Part Of You" PERFORMER "03 Oscar P, Bliss" INDEX 01 09:13:00 TRACK 04 AUDIO TITLE "Faith" PERFORMER "04 DJ Junior CNYTFK" INDEX 01 13:40:00 TRACK 05 AUDIO...

    published: 31 Aug 2017
  • Night Athens

    Dance

    published: 31 Jan 2017
  • Drive at night Athens

    published: 29 Apr 2016
  • Plaka by Night Athens 2014

    published: 03 Jun 2015
  • The Killers "Shot At The Night" Athens 24.06.2017

    The Killers "Shot At The Night" Athens 24.06.2017

    published: 06 Jul 2017
  • FuckUp Nights Athens Vol. IV

    published: 11 Dec 2016
Athens by night

Athens by night

  • Order:
  • Duration: 3:57
  • Updated: 03 Oct 2014
  • views: 352602
videos
VIDEO EDIT : NASKI PHOTOGRAPHY SONG : T-Pain feat. B.o.B - Up Down (Do This All Day) (Explicit)
https://wn.com/Athens_By_Night
Athens by night vol2

Athens by night vol2

  • Order:
  • Duration: 3:37
  • Updated: 13 Oct 2014
  • views: 78385
videos
Edit:Naski photography
https://wn.com/Athens_By_Night_Vol2
NightWalking in Athens. Is it Dangerous? ☠

NightWalking in Athens. Is it Dangerous? ☠

  • Order:
  • Duration: 5:27
  • Updated: 03 Jun 2016
  • views: 111962
videos
In this video I'm walking in Athens alone at night! Are you curious about how things are in Athens late at night? Is it safe or not? Just watch and find out!! Subscribe: http://bit.ly/1TN8YKc Find me on: Instagram: https://www.instagram.com/konilo_/ Facebook: https://www.facebook.com/Konilo Twitter: https://twitter.com/KoniloTv e-mail: konilo.tv@gmail.com Music Safakash: https://soundcloud.com/safakash Otis McDonald Youtube Library SpeTheof : https://www.youtube.com/user/SpeTheof
https://wn.com/Nightwalking_In_Athens._Is_It_Dangerous_☠
Athens By Night vol3

Athens By Night vol3

  • Order:
  • Duration: 3:55
  • Updated: 10 Apr 2015
  • views: 87776
videos
video edit : Βασιλης Συγκουνας naski photography
https://wn.com/Athens_By_Night_Vol3
Athens monuments at Night.

Athens monuments at Night.

  • Order:
  • Duration: 6:17
  • Updated: 29 May 2015
  • views: 32280
videos
Subscribe Here: https://goo.gl/IywfjP Follow Nitz Photography on social networks: Facebook: https://www.facebook.com/nitzphotographer Instagram: https://instagram.com/n_tzwrtzatos/ Google+: https://plus.google.com/u/1/b/109233178930235592414/109233178930235592414/posts?pageId=109233178930235592414 NitZ Photography There are many who say Athens is worth a visit of just a couple of days and then continue on to the Greek islands,you need a day to see the Acropolis and the Parthenon ,another day or two to see the National Archaeological Museum of Athens. Furthermore, during the summer season the Athens festival is held at the Theater of Herodes Atticus under the rock of Acropolis and is the best chance to see on stage an ancient Greek drama..During the Athens Festival there are many of world famous artists who perform at the ancient theater.It is an amazing experience on a warm Athens night to watch any display on that great Amphitheater. Next to the Parliament the National Garden and the Zappeion are places of interest a green oasis in the middle of the big city, walking through Zappeion you arrive opposite the Panathinaikon Stadium where the first modern Olympics took place in 1896. A few metres away towards Acropolis you have the monuments of the ancient temple of Olympic Zeus and the Adrianos Gate, at this point starts the Adrianou street which takes you through Plaka all the way down to Monastiraki with its flea market and Thission.At the end of Andrianou street is the Ancient Agora and the Attalos stoa museum. Most of its exhibits are connected with the Athenian Democracy and this is the reason that the ceremony of the entrance in the European Union of the 10 new member countries at the spring of 2003 took place at the Attalos Stoa. Walking up the Agora you get to the peripheral road under the Acropolis walls. Another easy way to go up to Acropolis is taking the Dioskouron street parallel to the Agora and after a few steps you get there. From this direction before you get to the main entrance is the rock of Arios Pagos the place where the Apostle Paul spoke to the Athenians, his speech is carved on a metal plate on the rock, it is worth climbing up the rock, the view of Athens and Piraeus especially during a full moon night is amazing but you should not wear high heeled shoes because the steps are uneven and slippery. From Arios Pagos you can watch the Sound and Light displays which are held every summer in Athens at the Pnika hill, the sound and light show consists of light and sound effects on the Acropolis and the Parthenon .The Lycabetous Hill is another place of interest something like the hill of Sacre Coeur in Paris. Though the small church of St George on the hill doesn't have the status of the Parisian church, the view is worth seeing, especially the ascent of going up in the same kind of funicular train like in Paris. You can get there from Ploutarhou street between Kolonaki and Hilton at the right side of Vasilisis Sophia's street. But the heart of Athens for the tourist and many Greeks as well are the areas of Plaka Psiri and Monastiraki. Using the DJI Phantom 3 Professional! Athens monuments at Night!! Greece! Facebook: https://www.facebook.com/nitzphotographer Nitz Photography Music: Ledovskiy Valeriy Remix - YANNI-One Man's Dream
https://wn.com/Athens_Monuments_At_Night.
A Night in Athens Greek Weddings

A Night in Athens Greek Weddings

  • Order:
  • Duration: 5:08
  • Updated: 07 Apr 2016
  • views: 3795
videos
https://wn.com/A_Night_In_Athens_Greek_Weddings
Athens by night 4K

Athens by night 4K

  • Order:
  • Duration: 3:09
  • Updated: 09 Jul 2016
  • views: 2628
videos
https://wn.com/Athens_By_Night_4K
A night in Athens

A night in Athens

  • Order:
  • Duration: 2:24
  • Updated: 22 Oct 2016
  • views: 7065
videos
Beat: Da Poet - Mikami
https://wn.com/A_Night_In_Athens
Athens by night (Street Racing Greece) | The best cars GR

Athens by night (Street Racing Greece) | The best cars GR

  • Order:
  • Duration: 4:45
  • Updated: 09 May 2015
  • views: 90261
videos
Streetz of Athenz at night.. Επειδή είναι η τρέλα και η αγάπη μας Πάντα με προσοχή στους δρόμους και στις πίστες..ζώνη και κράνος δεν βλάπτουν ποτέ!! Facebook: https://www.facebook.com/igTheBestCarsGR/?fref=ts
https://wn.com/Athens_By_Night_(Street_Racing_Greece)_|_The_Best_Cars_Gr
VARKIZA ATHENS by NIGHT @RIBAS | ОПАСНЫЕ ПРИКЛЮЧЕНИЯ

VARKIZA ATHENS by NIGHT @RIBAS | ОПАСНЫЕ ПРИКЛЮЧЕНИЯ

  • Order:
  • Duration: 10:26
  • Updated: 01 Feb 2017
  • views: 2464
videos
Ριμπας ATHENS by NIGHT @RIBAS | ОПАСНЫЕ ПРИКЛЮЧЕНИЯ Такие вот неожиданные приключения ждали меня этой ночью, но в целом всё было круто !
https://wn.com/Varkiza_Athens_By_Night_Ribas_|_Опасные_Приключения
Athens By Night  ఘ Belly Dance

Athens By Night ఘ Belly Dance

  • Order:
  • Duration: 5:01
  • Updated: 11 Apr 2010
  • views: 84820
videos https://wn.com/Athens_By_Night_ఘ_Belly_Dance
Athens by Night · Divenire

Athens by Night · Divenire

  • Order:
  • Duration: 5:05
  • Updated: 14 Apr 2013
  • views: 11153
videos
Paseo por Atenas en la noche. Música: Ludovico Einaudi - Divenire
https://wn.com/Athens_By_Night_·_Divenire
Frappes, night tour, greek salad and more in ATHENS!

Frappes, night tour, greek salad and more in ATHENS!

  • Order:
  • Duration: 12:32
  • Updated: 22 Sep 2017
  • views: 504
videos
Hey Guys! :) This video is sooooo overdue as I went to Athens in the beginning of September. My bad! But I finally sat down to edit and here it goes - one of my favorite layovers of the year :) Hope you enjoy! Also, there are some pictures from this layover on my Insta too, of course :) find them @vaivaged Love, Vaiva
https://wn.com/Frappes,_Night_Tour,_Greek_Salad_And_More_In_Athens
KRT - Athens by night on supermotos

KRT - Athens by night on supermotos

  • Order:
  • Duration: 3:26
  • Updated: 17 Sep 2017
  • views: 812
videos
heavy traffic scene with my boys on the mountain. showing hooligans how it's done. wheelies, endos, skids, drifts, crashes, laugh and lots of love. I do not own the song - Party Thieves & JayKode - Poppy Seeds (feat. Neon Hitch)
https://wn.com/Krt_Athens_By_Night_On_Supermotos
Athens By Night - 20/06/2017

Athens By Night - 20/06/2017

  • Order:
  • Duration: 4:48
  • Updated: 21 Jun 2017
  • views: 262
videos
https://wn.com/Athens_By_Night_20_06_2017
TheSuperCarClubGR - SUPERCARS NIGHT OUT, ATHENS TO LOUTRAKI- DECEMBER 18!

TheSuperCarClubGR - SUPERCARS NIGHT OUT, ATHENS TO LOUTRAKI- DECEMBER 18!

  • Order:
  • Duration: 2:48
  • Updated: 30 Dec 2015
  • views: 15789
videos
SUPERCARS NIGHT OUT, ATHENS TO LOUTRAKI! OFFICIAL PRE CHRISTMAS EVENT, DECEMBER 18! Κλείνουμε την χρονιά με το επίσημο βίντεο του event μας στο Λουτράκι. Με την ευκαιρία αυτή, θα θέλαμε να ευχηθούμε ακόμα μία φορά "Καλή Χρονιά" στα μέλη μας και τις οικογένειες τους! Ευχαριστούμε θερμά την εταιρεία "ΚΟΣΜΗΜΑΤΑ ΚΑΛΑΔΑΜΗΣ" και το μέλος μας Κωνσταντίνος Καλαδάμης, για την υποστήριξη! 2016 is here... stay tuned! Video: Orfeas Kalafatis #thesupercarclubgr #supercarsnightout #kaladamis_jewellery #clubhotelcasinoloutraki #cinedrone
https://wn.com/Thesupercarclubgr_Supercars_Night_Out,_Athens_To_Loutraki_December_18
Opening of W Night Club Athens on 01.10.2010

Opening of W Night Club Athens on 01.10.2010

  • Order:
  • Duration: 2:26
  • Updated: 02 Oct 2010
  • views: 219258
videos
Πειραιώς 130 - Γκάζι (ex Venue) Photo Coverage by www.carpe-diem.gr
https://wn.com/Opening_Of_W_Night_Club_Athens_On_01.10.2010
Athens by Night | GREECE EDITION - EP. 03

Athens by Night | GREECE EDITION - EP. 03

  • Order:
  • Duration: 7:47
  • Updated: 26 Sep 2016
  • views: 754
videos
Travel Vlog #58 I'm back on a travel, this time my family and I explore beautiful Greece a bit. My sisters and I went to the National Archaeological Museum of Athens, and walked through the city at night. Enjoy our travel with us! :) My sister's POV: https://youtu.be/6BGhwZ0ku-8 Greece Playlist: https://www.youtube.com/playlist?list=PLxRXRx7-rN_VOHvYhwNtuyjYzymu4kFv8 Lake Constance: https://youtu.be/VZJwZXwKRjM __ Don't forget to subscribe: http://bit.ly/1IZDg9r Blog: http://davlorito.com/ IG: https://instagram.com/davlorito FB: https://www.facebook.com/davlorito Tumblr: https://davlorito.tumblr.com/ Twitter: https://twitter.com/Davlorito Make sure to subscribe for more videos :) 📧 Business inquiries: Davlorito@gmail.com _ Abbie: IG: https://www.instagram.com/queen.liagiba/ YT: https://www.youtube.com/channel/UCuUNIPlLkEz9MQPSMebdwyQ _ 🎥 Canon PowerShot G7 X 🎬 FCPX Intro Creator: https://www.youtube.com/TheSniperz09 Music: Intro Song: Up All Night (YouTube Audio Library) 1. GhostnGhost - Melancholy: https://youtu.be/Lov6SlPzSAg 2. Jeris - Nighttime: https://youtu.be/6jV9xsCg3c4 Outro Song: Vexento - Pixel Party https://soundcloud.com/vexento/vexento-pixel-party You are a music creator and want me to use your tracks? Send me an email with the subject 'YT Music'. Email: Davlorito@gmail.com _ Disclaimer : This is not a sponsored Video.
https://wn.com/Athens_By_Night_|_Greece_Edition_Ep._03
Killers-Shot At The Night[live in Athens 24-06-2017]

Killers-Shot At The Night[live in Athens 24-06-2017]

  • Order:
  • Duration: 4:27
  • Updated: 25 Jun 2017
  • views: 329
videos
Shot At The Night Killers live Athens Greece 24-06-2017 EJEKT Festival 2017 *****THE COPYRIGHT IS NOT MINE, I JUST RECORDED THE VIDEO-ALL RIGHTS RESERVED BY Killers, THE SHOW PRODUCERS,The Artists AND THE RECORDING COMPANY/COMPANIES***** Copyright Disclaimer: Under Section 107 of the Copyright Act 1976, allowance is made for "fair use" for purposes such as criticism, comment, news reporting, teaching, scholarship, and research. Fair use is a use permitted by copyright statute that might otherwise be infringing. Non-profit, educational or personal use tips the balance in favor of fair use.
https://wn.com/Killers_Shot_At_The_Night_Live_In_Athens_24_06_2017
Sandra - In the heat of the night (Live Athens 1987)

Sandra - In the heat of the night (Live Athens 1987)

  • Order:
  • Duration: 5:17
  • Updated: 31 Mar 2007
  • views: 60347
videos
hi,one more very rare video from my collection Sandra - In the heat of the night (Live Athens 1987)
https://wn.com/Sandra_In_The_Heat_Of_The_Night_(Live_Athens_1987)
Athens Night Lights

Athens Night Lights

  • Order:
  • Duration: 3:25
  • Updated: 01 Feb 2013
  • views: 1188
videos
Athens from above...
https://wn.com/Athens_Night_Lights
A night in Athens trailer

A night in Athens trailer

  • Order:
  • Duration: 3:53
  • Updated: 02 Nov 2012
  • views: 15060
videos
https://wn.com/A_Night_In_Athens_Trailer
BMW S1000XR: Athens to Lamia, highway by night

BMW S1000XR: Athens to Lamia, highway by night

  • Order:
  • Duration: 12:10
  • Updated: 16 Jul 2016
  • views: 2024
videos
Night riding, going back to Lamia from Athens.
https://wn.com/Bmw_S1000Xr_Athens_To_Lamia,_Highway_By_Night
Athens night clubs party Best of deep sound music Vol 1 of 3 mix by babis jb

Athens night clubs party Best of deep sound music Vol 1 of 3 mix by babis jb

  • Order:
  • Duration: 1:11:37
  • Updated: 31 Aug 2017
  • views: 27
videos
Best of deep sound music Vol 1 of 3 mix by babis jb Athens night clubs party Photo Anastasiya-Kvitko //For copyright issues, please contact us via e-mail or leave messages and your song/picture will be removed immediately thanks// free download tracks list info PERFORMER "TOP DJS MIX" TITLE " Athens night clubs party " FILE "TOP DJs MIX BjB 2017-Ds.mp3" MP3 TRACK 01 AUDIO TITLE "Oxygen" PERFORMER "01 Jyye ft. Bryan Finlay" INDEX 01 00:00:00 TRACK 02 AUDIO TITLE "Hold You (Anton Ishutin Remix)" PERFORMER "02 Mahmut Orhan Meliksah Beken" INDEX 01 04:39:00 TRACK 03 AUDIO TITLE "Part Of You" PERFORMER "03 Oscar P, Bliss" INDEX 01 09:13:00 TRACK 04 AUDIO TITLE "Faith" PERFORMER "04 DJ Junior CNYTFK" INDEX 01 13:40:00 TRACK 05 AUDIO TITLE "Traffic Lights (Artfaq Remix)" PERFORMER "05 Rise And Fall" INDEX 01 18:09:00 TRACK 06 AUDIO TITLE "Nobody Else" PERFORMER "06 Elenika" INDEX 01 22:37:00 TRACK 07 AUDIO TITLE "Don't Speak" PERFORMER "07 No Doubt" INDEX 01 28:10:00 TRACK 08 AUDIO TITLE "Eel Pie Island - YouTube" PERFORMER "08 Jimpster" INDEX 01 31:27:00 TRACK 09 AUDIO TITLE "Now You're Gone" PERFORMER "09 Vhyce" INDEX 01 36:14:00 TRACK 10 AUDIO TITLE "Tatar Jaras - YouTube" PERFORMER "10 Viktor Udvari" INDEX 01 40:04:00 TRACK 11 AUDIO TITLE "Fourth System" PERFORMER "11 Joshua Puerta" INDEX 01 44:26:00 TRACK 12 AUDIO TITLE "Sunshine" PERFORMER "12 Mockbeat" INDEX 01 48:35:00 TRACK 13 AUDIO TITLE "Kukos - YouTube" PERFORMER "13 Chris IDH, Nikos Diamantopoulos" INDEX 01 52:16:00 TRACK 14 AUDIO TITLE "Soul Survivor" PERFORMER "14 Infected Soul, Sinai" INDEX 01 57:53:00 TRACK 15 AUDIO TITLE "Paperwall" PERFORMER "15 Jonas Woehl & Anna Leyne" INDEX 01 64:11:00
https://wn.com/Athens_Night_Clubs_Party_Best_Of_Deep_Sound_Music_Vol_1_Of_3_Mix_By_Babis_Jb
Night Athens

Night Athens

  • Order:
  • Duration: 1:00
  • Updated: 31 Jan 2017
  • views: 2
videos https://wn.com/Night_Athens
Drive at night Athens

Drive at night Athens

  • Order:
  • Duration: 0:31
  • Updated: 29 Apr 2016
  • views: 8
videos
https://wn.com/Drive_At_Night_Athens
Plaka by Night Athens 2014

Plaka by Night Athens 2014

  • Order:
  • Duration: 1:15
  • Updated: 03 Jun 2015
  • views: 147
videos
https://wn.com/Plaka_By_Night_Athens_2014
The Killers "Shot At The Night" Athens 24.06.2017

The Killers "Shot At The Night" Athens 24.06.2017

  • Order:
  • Duration: 3:54
  • Updated: 06 Jul 2017
  • views: 25
videos https://wn.com/The_Killers_Shot_At_The_Night_Athens_24.06.2017
FuckUp Nights Athens Vol. IV

FuckUp Nights Athens Vol. IV

  • Order:
  • Duration: 1:03
  • Updated: 11 Dec 2016
  • views: 131
videos
https://wn.com/Fuckup_Nights_Athens_Vol._Iv